[ Migsa @ 18.06.2008. 02:16 ] @
E Ovako jedno tehnicko pitanje skinuo sam Nindza Koranjace na srpskom. I narezao sam na dvd na 8x brzini, zeleo bih da dam mojoj necaki i necaku da gledaju, ali kad sam ubacio u moj dvd player, bruka, slika je sva nikakva mesaju se boje i svasta haos (mislim da je slikovito objasnjeno :D), posle sam ubacio neki crtac i video sam da on radi uporedio sam ih MediaInfo i zacudjujuce sve je isto, jedina razlika sto sam uocio a nemam pojma sta je Format profile : Streaming [email protected] kod mog drugog crtaca a kod kornjaca je Format profile : [email protected] Zbog cega bi moglo ovo da se dogodi i kakva resenja mozete da mi ponudite, Ocu necacima da dam da imaju da gledaju nesto dobro ovog leta, zato molim pomagajte :(, kakve god informacije vam trebaju da bi ste mi pomogli molim vas
pitajte. Rezao sam sa Nerom.

Ovo je od crtaca koji radi:

General
Complete name : C:\Documents and Settings\Geros\Desktop\[a.f.k.] Karin - 01.avi
Format : AVI
Format/Info : Audio Video Interleave
File size : 175 MiB
Duration : 23mn 29s
Overal bit rate : 1040 Kbps
Writing library : VirtualDub build 23604/release

Video
Format : MPEG-4 Visual
Format profile : Streaming [email protected]
Format settings, BVOP : No
Format settings, QPel : No
Format settings, GMC : No warppoints
Format settings, Matrix : Default
Codec ID : XVID
Codec ID/Hint : XviD
Duration : 23mn 29s
Bit rate : 902 Kbps
Width : 640 pixels
Height : 360 pixels
Display aspect ratio : 16/9
Frame rate : 23.976 fps
Resolution : 8 bits
Colorimetry : 4:2:0
Scan type : Progressive
Bits/(Pixel*Frame) : 0.163
Stream size : 152 MiB
Writing library : XviD 1.0.3 (UTC 2004-12-20)

Audio
Format : MPEG Audio
Format version : Version 1
Format profile : Layer 3
Codec ID : 55
Codec ID/Hint : MP3
Duration : 23mn 29s
Bit rate mode : Constant
Bit rate : 128 Kbps
Minimum bit rate : 128 Kbps
Channel(s) : 1 channel
Sampling rate : 44.1 KHz
Resolution : 16 bits
Stream size : 21.5 MiB
Writing library : LAME3.96r
Encoding settings : CBR

A ovo od kornjaca koje ne rade:

General
Complete name : C:\Program Files\uTorrent\Ninja kornjace\01x01 - 01 - Tragovi kornjaca.avi
Format : AVI
Format/Info : Audio Video Interleave
File size : 181 MiB
Duration : 21mn 38s
Overal bit rate : 1168 Kbps
Movie name : Nindza kornjace - 01 - Tragovi kornjaca
Director : Necro
Writing application : VirtualDubMod 1.5.10.2 (build 2540/release)
Writing library : VirtualDubMod build 2540/release
Copyright :
Video
Format : MPEG-4 Visual
Format profile : [email protected]
Format settings, BVOP : Yes
Format settings, QPel : No
Format settings, GMC : No warppoints
Format settings, Matrix : Custom
Codec ID : XVID
Codec ID/Hint : XviD
Duration : 21mn 38s
Bit rate : 903 Kbps
Width : 512 pixels
Height : 384 pixels
Display aspect ratio : 4/3
Frame rate : 23.976 fps
Resolution : 8 bits
Colorimetry : 4:2:0
Scan type : Progressive
Bits/(Pixel*Frame) : 0.192
Stream size : 140 MiB
Writing library : XviD 1.0.3 (UTC 2004-12-20)

Audio
Format : MPEG Audio
Format version : Version 1
Format profile : Layer 3
Codec ID : 55
Codec ID/Hint : MP3
Duration : 21mn 36s
Bit rate mode : Constant
Bit rate : 256 Kbps
Channel(s) : 2 channels
Sampling rate : 44.1 KHz
Resolution : 16 bits
Stream size : 39.6 MiB
[ bytefx192 @ 18.06.2008. 13:56 ] @
E vidis, kojim slucajem ja sam skinuo sa rapid-a nindza kornjace, i lepo mi rade na DVD Player, Mustek neki....
Moguce da je do nekih kodeka... Na kojem TV-u si pustio. Na obicnom ? Da nije plazma :)

pozz
[ Migsa @ 18.06.2008. 17:18 ] @
Televizor mi, SEG obican, a dvd player mi TEC
[ Migsa @ 18.06.2008. 23:43 ] @
Ali izgleda da nema veze odneo sam danas kod necaka i njemu ne radi na DVD playeru, ako bi nio ljubazan da mi das link odakle si ti skidao da vidim ima li razlike neke.
[ Stranger2 @ 20.06.2008. 01:45 ] @
Citat:
Format settings, Matrix : Custom

mislim da je to uzrok zbog kojeg video ne radi. neko ko je kompresovao taj video je koristio custom quatization matrix.
takav video koliko ja znam ne moze raditi ispravno na kucnim DVD/DivX plejerima.

Ako ti video radi na kompjuteru, onda je resenje da ga rekompresujes ali da pri tome pazis da podesavanja budu samo standardna. Ako kompresujes sa DivX codecom, dovoljno je da odaberes Home Theater Profile i video ce 100% raditi na svakom plejeru.
[ Migsa @ 20.06.2008. 19:34 ] @
Citat:
Stranger2: mislim da je to uzrok zbog kojeg video ne radi. neko ko je kompresovao taj video je koristio custom quatization matrix.
takav video koliko ja znam ne moze raditi ispravno na kucnim DVD/DivX plejerima.

Ako ti video radi na kompjuteru, onda je resenje da ga rekompresujes ali da pri tome pazis da podesavanja budu samo standardna. Ako kompresujes sa DivX codecom, dovoljno je da odaberes Home Theater Profile i video ce 100% raditi na svakom plejeru.


Nisam imao pojma da ima Theater Profile, uradio sam i radi mi savrseno hvala ti puno na pomoci ortak :)