[ fangorn @ 27.01.2010. 18:26 ] @
verovatno se mnogima desilo da video zapis secka pri reprodukciji, pa me zanima zbog cega se to desava. seckanje ne mora da bude bas strasno, najcesce se desava kada se smenjuju brze scene ili kada se pomera neki objekat na filmu, recimo kamera je nepomicna i snima voz koji prolazi, tada se jasno primecuje seckanje slike, dok je zvuk u redu. to mi se desava i sa divx i sa dvd filmovima, situacija je identicna i kada te iste filmove snimim na cd i pustim preko kucnog dvd playera. napominjem da se to desava sa nekim, ne sa svim filmovima tako da pretpostavljam da je sa mojim uredjajima sve u redu jer da nije svi filmovi bi seckali. pretpostavljam da je nesto u vezi kodeka, podesavanja u istim ili nesto slicno. kada prebacim neki video zapis sa kamere ili vhsa i kompresujem u divx, to se ne desava i slika glatko ide.
[ Stranger2 @ 29.01.2010. 17:57 ] @
Citat:
situacija je identicna i kada te iste filmove snimim na cd i pustim preko kucnog dvd playera.

Znaci da to nije problem u vezi codeca i podesavanja.

Rad ise o tome da su vecina svi DivX filmovi i skoro svi DVD filmovi progressive sa framerateom od 25fps ili 30fps. Toznaci da slika nije savrseno tecna kao u prirodi vec se prikatzuju samo 25 slika u sekundi. Naravno to vise primeti kod brzih pokreta nego kod sporih. Jer kod brzih pokreta je veca razlka os liki do slike. Kod potpuno mirnih scena ovo je nebitno jer nema razlike medju slikama pa mirne scene dobro izgledaju i kada je strasno nizak fps.

(FPS znaci frames per seccond - slika usekundi)

Kod obicnogTv programa pokrti su prikazani tecnije jer Tv prikazije video na interlace nacin sa dvostruko vecim brojem (polu)slika u sekundi. Medjutim interlaced metod ima drugu manu a to je da su staticne slike mnogo losije nego kod progressive.

Dodatni problem je kada pustas divx sa 30fps (NTSC sistem) na kucnom plejeru a on to konvertuje za domace televizore na 25fps (PAL sistem). Pri konverziji s a30 na 25 fps se takodje gubi prirodnost pokreta jer je jednostavno nemoguce konkvertovati 30 slika snimljenih u 30 razlicitih trenuata u 25 slika a da se ne primeti gubitak.

Konacno resenje ovih problema ce mozda biti jednog dana ako se standardno bude koristio video od 60 fps progressive. Ali to ce mozda biti za 5-6 godina, mozda i duze.

Da bi video koliko je znacajan framerate (broj fps) za seckanje ili glatkocu instaliraj neku igru koja ima ugradjen benchmark npr. "World in Conflict" ili "Farc Cry 2" videces da je krajnji minimum za glatko izvodjenje brzih pokreta bar 30fps. A prava glatkoca pokreta se postize tek sa 50fps. Za svaki slucaj treba teziti da se postigne 60 fps jer onda garantovano pokreti ne izgledaj seckavo.
[ fangorn @ 29.01.2010. 23:59 ] @
citat:
"situacija je identicna i kada te iste filmove snimim na cd i pustim preko kucnog dvd playera"
"Znaci da to nije problem u vezi codeca i podesavanja."

mislio sam da kazem da je onaj koji je kompresovao te filmove primenio neke opcije koje meni iz nekog razloga ne odgovaraju, a ne da je do podesavanja codeca na mojoj masini. citao sam da recimo qpel opcija zna da pravi probleme kod reprodukcije kod nekih playera, znaci ako je neko kompresovao film sa ukljucenom qpel opcijom, kod nekoga taj fajl nece biti citljiv ili ce imati vecih problema pri njegovom otvaranju.

citat:
"Rad ise o tome da su vecina svi DivX filmovi i skoro svi DVD filmovi progressive sa framerateom od 25fps ili 30fps. Toznaci da slika nije savrseno tecna kao u prirodi vec se prikatzuju samo 25 slika u sekundi"

imam filmove i serije sa 25fps koji su izuzetno tecni i u najbrzim scenama tako da mislim da nije u tome problem vec u necem drugom.
[ Stranger2 @ 30.01.2010. 12:10 ] @
U tom slcuaju moze biti ostecenje fajla. moze biti i recimo preveliki broj refrece frejmova kod B frejmova pa da preterano zauzima memoriju dekodera...

Otvori jedanm od tih fajlova u programu Mediainfo. prebaci na tekstualne informacije pa prebaci ove da vidimo o cemu se radi.
[ fangorn @ 30.01.2010. 13:18 ] @
ovo je info fajla koji ima savrsenu reprodukciju:

Complete name : H:\24 - season 08\24 - 08x01.avi
Format : AVI
Format/Info : Audio Video Interleave
File size : 350 MiB
Duration : 41mn 52s
Overall bit rate : 1 168 Kbps
Writing application : MEncoder dev-SVN-r26940
Writing library : MPlayer

Video
ID : 0
Format : MPEG-4 Visual
Format profile : Advanced [email protected]
Format settings, BVOP : Yes
Format settings, QPel : No
Format settings, GMC : No warppoints
Format settings, Matrix : Default (H.263)
Muxing mode : Packed bitstream
Codec ID : XVID
Codec ID/Hint : XviD
Duration : 41mn 52s
Bit rate : 1 026 Kbps
Width : 624 pixels
Height : 352 pixels
Display aspect ratio : 16:9
Frame rate : 23.976 fps
Resolution : 8 bits
Colorimetry : 4:2:0
Scan type : Progressive
Bits/(Pixel*Frame) : 0.195
Stream size : 307 MiB (88%)
Writing library : XviD 1.2.1 (UTC 2008-12-04)

Audio
ID : 1
Format : MPEG Audio
Format version : Version 1
Format profile : Layer 3
Mode : Joint stereo
Format_Settings_ModeExtension : MS Stereo
Codec ID : 55
Codec ID/Hint : MP3
Duration : 41mn 52s
Bit rate mode : Variable
Bit rate : 128 Kbps
Channel(s) : 2 channels
Sampling rate : 48.0 KHz
Stream size : 38.5 MiB (11%)
Alignment : Aligned on interleaves
Interleave, duration : 24 ms (0.58 video frame)
Interleave, preload duration : 529 ms

ovo je info fajla koji bas dosta secka:

Complete name : F:\1x01-SomethingWiccaThisWayComes.avi
Format : AVI
Format/Info : Audio Video Interleave
File size : 350 MiB
Duration : 43mn 29s
Overall bit rate : 1 125 Kbps
Writing application : VirtualDubMod 1.5.10.1 (build 2439/release)
Writing library : VirtualDub build 32661/release

Video
ID : 0
Format : MPEG-4 Visual
Format settings, BVOP : Yes
Format settings, QPel : No
Format settings, GMC : No warppoints
Format settings, Matrix : Default (H.263)
Muxing mode : Packed bitstream
Codec ID : DX50
Codec ID/Hint : DivX 5
Duration : 43mn 29s
Bit rate : 985 Kbps
Width : 512 pixels
Height : 384 pixels
Display aspect ratio : 4:3
Frame rate : 29.970 fps
Resolution : 8 bits
Colorimetry : 4:2:0
Scan type : Progressive
Bits/(Pixel*Frame) : 0.167
Stream size : 307 MiB (88%)
Writing library : DivX 6.8.5 (UTC 2009-08-20)

Audio
ID : 1
Format : MPEG Audio
Format version : Version 1
Format profile : Layer 3
Mode : Joint stereo
Format_Settings_ModeExtension : MS Stereo
Codec ID : 55
Codec ID/Hint : MP3
Duration : 43mn 29s
Bit rate mode : Constant
Bit rate : 128 Kbps
Channel(s) : 2 channels
Sampling rate : 48.0 KHz
Stream size : 39.8 MiB (11%)
Alignment : Split accross interleaves
Interleave, duration : 33 ms (1.00 video frame)
Interleave, preload duration : 500 ms
Writing library : LAME3.95

drugi fajl koji ima vise fps-a od prvog a secka, znaci nije to.
ovo je info fajla slicnog kao drugi koji secka, ali ovaj ne secka uopste ili mozda jedva primetno, ponekad:

Complete name : F:\8x01-Still Kicking.avi
Format : AVI
Format/Info : Audio Video Interleave
File size : 349 MiB
Duration : 40mn 24s
Overall bit rate : 1 206 Kbps
Writing application : VirtualDubMod 1.5.10.2 (build 2540/release)
Writing library : VirtualDubMod build 2540/release

Video
ID : 0
Format : MPEG-4 Visual
Format profile : Advanced [email protected]
Format settings, BVOP : Yes
Format settings, QPel : No
Format settings, GMC : No warppoints
Format settings, Matrix : Default (H.263)
Muxing mode : Packed bitstream
Codec ID : XVID
Codec ID/Hint : XviD
Duration : 40mn 24s
Bit rate : 1 062 Kbps
Width : 512 pixels
Height : 384 pixels
Display aspect ratio : 4:3
Frame rate : 25.000 fps
Resolution : 8 bits
Colorimetry : 4:2:0
Scan type : Progressive
Bits/(Pixel*Frame) : 0.216
Stream size : 307 MiB (88%)
Writing library : XviD 1.2.0.dev47 (UTC 2006-11-01)

Audio
ID : 1
Format : MPEG Audio
Format version : Version 1
Format profile : Layer 3
Mode : Joint stereo
Codec ID : 55
Codec ID/Hint : MP3
Duration : 40mn 24s
Bit rate mode : Variable
Bit rate : 131 Kbps
Nominal bit rate : 128 Kbps
Channel(s) : 2 channels
Sampling rate : 48.0 KHz
Stream size : 37.9 MiB (11%)
Alignment : Aligned on interleaves
Interleave, duration : 24 ms (0.60 video frame)
Interleave, preload duration : 140 ms
Writing library : LAME3.90.
Encoding settings : -m j -V 4 -q 2 -lowpass 17.6 --abr 128
[ Stranger2 @ 30.01.2010. 16:43 ] @
Sve deluje normalno.

mozda ovo
Citat:
Frame rate : 29.970 fps

To je framerate po NTSC standardu pa je moguce da ga plejeri ne mogu lako prepakovati u 25fps PAL koji treba za domace TV. Ali sumnjam da je zbog toga...

Moguce da su fajlovi osteceni. Ili kreirani losim programom ili greska usled skidanja sa interneta.
probaj da svaki od ovih koji lose rade ootvoris u programu VirtualDubMod. U meniju video namesti kvacicu na "direct stream copy" i idi na Save As pa snimi pod drugim imenom. On ce prepakovati taj video u 100% ispravne AVI fajlove pa onda isprobaj da li ima jos takvih problema.

Takodje je moguce da pravi problem zato sto je audio u dva od ta tri fajla sa VBR (varijabilnim) bitrateom. AVI fajlovi nekada imaju problema sa VBR a nekada ne. Mnogo zavisi od programa u kojem su kreirani. Nekad VirtualDub samo upozori da fajl sadrzi VBR audio a nekada ne moze nista sa njim da uradis dok potpuno ne iskljucis taj audio track pa ga zamenis sa drugim koji je CBR. Ja za svaki slucaj uvek koristim CBR kada su AVI fajlovi u pitanju.

[ fangorn @ 31.01.2010. 17:02 ] @
prepakovao sam u virtualdubu video stream, cak sam stavio audio na "no audio", ali sve je ostalo isto, slika secka kao i ranije, znaci nije ni to.